(Retro, Советская эстрада) VA - Кружатся Диски. ВИА 70-80-х годов - 1996 [WavPack, image +.cue, lossless]

Ответить на тему
 
Автор Сообщение

sergej644 ®

Пол:

Стаж: 4 года 8 месяцев

Сообщений: 455

Откуда: Soviet Union

Пост 13-Ноя-2016 21:58

[Цитировать]

-VA - Кружатся Диски. ВИА 70-80-х годов--
Год издания: 1996
Страна: СССР
Жанр: Retro, Советская эстрада
Продолжительность: 01:04:58-Лейбл издания: Фирма Мелодия
Страна-выпуска диска: Russia
Номер по каталогу: CD 60 00426-Формат: WavPack
Битрейт аудио: Lossless
Тип рипа: image +.cue
Наличие сканов в содержимом раздачи: да
-

Трэклист


01.ВИА Самоцветы - Всё, что есть у меня(4:22)
02.ВИА Самоцветы - Багульник(2:55)
03.ВИА Самоцветы - Ещё раз про любовь(3:07)
04.ВИА Пламя - За поворотом(3:09)
05.ВИА Пламя - Детства последний звонок(4:00)
06.ВИА Добры молодцы - Качели(2:21)
07.ВИА Добры молодцы - Как счастливым быть(3:29)
08.ВИА Аракс - Золотая лестница(2:55)
09.ВИА Аракс - Анастасия(3:15)
10.ВИА Лейся, песня - Где же ты была?(3:32)
11.ВИА Лейся, песня - Есть на Севере хороший городок(2:15)
12.ВИА Синяя птица - Между мною и тобою(3:25)
13.ВИА Цветы - Колыбельная(3:15)
14.ВИА Цветы - Рано прощаться(4:18)
15.ВИА Здравствуй, песня - Синяя песня(2:50)
16.ВИА Здравствуй, песня - Я помню всё(3:05)
17.ВИА Красные маки - Встречай меня(4:00)
18.ВИА Красные маки - Трудно расстаться(2:26)
19.ВИА Красные маки - Кружатся диски(6:19)
-

Лог создания рипа

Код:
Exact Audio Copy V1.0 beta 3 from 29. August 2011
EAC extraction logfile from 11. August 2013, 10:07
Various Artists / Кружатся Диски . ВИА 70-80-х годов
Used drive  : PLEXTOR DVDR   PX-L890SA   Adapter: 1  ID: 0
Read mode               : Secure
Utilize accurate stream : Yes
Defeat audio cache      : Yes
Make use of C2 pointers : No
Read offset correction                      : 6
Overread into Lead-In and Lead-Out          : No
Fill up missing offset samples with silence : Yes
Delete leading and trailing silent blocks   : No
Null samples used in CRC calculations       : Yes
Used interface                              : Native Win32 interface for Win NT & 2000
Used output format              : User Defined Encoder
Selected bitrate                : 1024 kBit/s
Quality                         : High
Add ID3 tag                     : No
Command line compressor         : C:\Program Files (x86)\Exact Audio Copy\wavpack.exe
Additional command line options : -hlm %source%
TOC of the extracted CD
     Track |   Start  |  Length  | Start sector | End sector
    ---------------------------------------------------------
        1  |  0:00.00 |  4:22.25 |         0    |    19674
        2  |  4:22.25 |  2:55.37 |     19675    |    32836
        3  |  7:17.62 |  3:06.45 |     32837    |    46831
        4  | 10:24.32 |  3:08.55 |     46832    |    60986
        5  | 13:33.12 |  3:59.38 |     60987    |    78949
        6  | 17:32.50 |  2:20.62 |     78950    |    89511
        7  | 19:53.37 |  3:28.70 |     89512    |   105181
        8  | 23:22.32 |  2:55.23 |    105182    |   118329
        9  | 26:17.55 |  3:15.20 |    118330    |   132974
       10  | 29:33.00 |  3:32.25 |    132975    |   148899
       11  | 33:05.25 |  2:14.57 |    148900    |   159006
       12  | 35:20.07 |  3:25.25 |    159007    |   174406
       13  | 38:45.32 |  3:14.50 |    174407    |   189006
       14  | 42:00.07 |  4:18.18 |    189007    |   208374
       15  | 46:18.25 |  2:49.67 |    208375    |   221116
       16  | 49:08.17 |  3:05.08 |    221117    |   234999
       17  | 52:13.25 |  3:59.62 |    235000    |   252986
       18  | 56:13.12 |  2:26.20 |    252987    |   263956
       19  | 58:39.32 |  6:18.43 |    263957    |   292349
Range status and errors
Selected range
     Filename D:\wwphil\Various Artists - Кружатся Диски ● ВИА 70-80-х годов\Various Artists - Кружатся Диски . ВИА 70-80-х годов.wav
     Peak level 94.7 %
     Extraction speed 9.8 X
     Range quality 99.9 %
     Test CRC B9603881
     Copy CRC B9603881
     Copy OK
No errors occurred
AccurateRip summary
Track  1  not present in database
Track  2  not present in database
Track  3  not present in database
Track  4  not present in database
Track  5  not present in database
Track  6  not present in database
Track  7  not present in database
Track  8  not present in database
Track  9  not present in database
Track 10  not present in database
Track 11  not present in database
Track 12  not present in database
Track 13  not present in database
Track 14  not present in database
Track 15  not present in database
Track 16  not present in database
Track 17  not present in database
Track 18  not present in database
Track 19  not present in database
None of the tracks are present in the AccurateRip database
End of status report

Индексная карта (non-compilant .cue)

Код:
REM GENRE "Retro, Сов. эстрада"
REM DATE 1996
REM DISCID 0B0F3A13
REM COMMENT "ExactAudioCopy v1.0b3"
PERFORMER "Various Artists"
TITLE "Кружатся Диски . ВИА 70-80-х годов"
FILE "Various Artists - Кружатся Диски . ВИА 70-80-х годов.wv" WAVE
  TRACK 01 AUDIO
    TITLE "Всё, что есть у меня"
    PERFORMER "ВИА Самоцветы"
    INDEX 01 00:00:00
  TRACK 02 AUDIO
    TITLE "Багульник"
    PERFORMER "ВИА Самоцветы"
    INDEX 00 04:19:37
    INDEX 01 04:22:25
  TRACK 03 AUDIO
    TITLE "Ещё раз про любовь"
    PERFORMER "ВИА Самоцветы"
    INDEX 00 07:16:32
    INDEX 01 07:17:62
  TRACK 04 AUDIO
    TITLE "За поворотом"
    PERFORMER "ВИА Пламя"
    INDEX 00 10:22:37
    INDEX 01 10:24:32
  TRACK 05 AUDIO
    TITLE "Детства последний звонок"
    PERFORMER "ВИА Пламя"
    INDEX 00 13:31:00
    INDEX 01 13:33:12
  TRACK 06 AUDIO
    TITLE "Качели"
    PERFORMER "ВИА Добры молодцы"
    INDEX 00 17:31:12
    INDEX 01 17:32:50
  TRACK 07 AUDIO
    TITLE "Как счастливым быть"
    PERFORMER "ВИА Добры молодцы"
    INDEX 00 19:51:25
    INDEX 01 19:53:37
  TRACK 08 AUDIO
    TITLE "Золотая лестница"
    PERFORMER "ВИА Аракс"
    INDEX 00 23:20:62
    INDEX 01 23:22:32
  TRACK 09 AUDIO
    TITLE "Анастасия"
    PERFORMER "ВИА Аракс"
    INDEX 00 26:15:42
    INDEX 01 26:17:55
  TRACK 10 AUDIO
    TITLE "Где же ты была?"
    PERFORMER "ВИА Лейся, песня"
    INDEX 00 29:31:07
    INDEX 01 29:33:00
  TRACK 11 AUDIO
    TITLE "Есть на Севере хороший городок"
    PERFORMER "ВИА Лейся, песня"
    INDEX 00 33:03:12
    INDEX 01 33:05:25
  TRACK 12 AUDIO
    TITLE "Между мною и тобою"
    PERFORMER "ВИА Синяя птица"
    INDEX 00 35:18:25
    INDEX 01 35:20:07
  TRACK 13 AUDIO
    TITLE "Колыбельная"
    PERFORMER "ВИА Цветы"
    INDEX 00 38:43:12
    INDEX 01 38:45:32
  TRACK 14 AUDIO
    TITLE "Рано прощаться"
    PERFORMER "ВИА Цветы"
    INDEX 00 41:58:00
    INDEX 01 42:00:07
  TRACK 15 AUDIO
    TITLE "Синяя песня"
    PERFORMER "ВИА Здравствуй, песня"
    INDEX 00 46:16:00
    INDEX 01 46:18:25
  TRACK 16 AUDIO
    TITLE "Я помню всё"
    PERFORMER "ВИА Здравствуй, песня"
    INDEX 00 49:06:05
    INDEX 01 49:08:17
  TRACK 17 AUDIO
    TITLE "Встречай меня"
    PERFORMER "ВИА Красные маки"
    INDEX 00 52:11:62
    INDEX 01 52:13:25
  TRACK 18 AUDIO
    TITLE "Трудно расстаться"
    PERFORMER "ВИА Красные маки"
    INDEX 00 56:11:37
    INDEX 01 56:13:12
  TRACK 19 AUDIO
    TITLE "Кружатся диски"
    PERFORMER "ВИА Красные маки"
    INDEX 00 58:37:00
    INDEX 01 58:39:32
--

_________________
[Профиль] [ЛС]
Показать сообщения:    
Ответить на тему

Текущее время: Сегодня 01:22

Часовой пояс: GMT + 4



Вы не можете начинать темы
Вы не можете отвечать на сообщения
Вы не можете редактировать свои сообщения
Вы не можете удалять свои сообщения
Вы не можете голосовать в опросах
Вы не можете прикреплять файлы к сообщениям
Вы не можете скачивать файлы