(Petro, Советская Эстрада) [CD] Аида Ведищева - Лучшие Песни 2CD - 2013, FLAC (tracks+.cue), lossless

Ответить на тему
 
Автор Сообщение

Niko ®

Пол:

Стаж: 4 года 11 месяцев

Сообщений: 1939

Пост 12-Июл-2014 22:07

[Цитировать]

Аида Ведищева / Лучшие Песни 2CD
Жанр: Petro, Советская Эстрада
Носитель: CD
Страна-производитель диска: Russia
Год издания: 2013
Издатель (лейбл): Didital Records / Zebra Studio
Страна: СССР / США
Аудиокодек: FLAC (*.flac)
Тип рипа: tracks+.cue
Битрейт аудио: lossless
Источник (релизер): oleandris
Наличие сканов в содержимом раздачи: да

СD1Треклист

01. Аида Ведищева - Лесной Олень (2:57)
02. Аида Ведищева - Помоги Мне (4:39)
03. Аида Ведищева - Дорожная (2:35)
04. Аида Ведищева - Арифметика (2:49)
05. Аида Ведищева - Гололёд (3:29)
06. Аида Ведищева - Песня о Весне (2:29)
07. Аида Ведищева - Товарищ (3:13)
08. Аида Ведищева - Просто Возраст Мой Такой (3:36)
09. Аида Ведищева - Найди Меня (2:24)
10. Аида Ведищева - Чёт Или Нечет (2:38)
11. Аида Ведищева - Чёрный Кофе (2:19)
12. Аида Ведищева - Смешной Паренёк (3:04)
13. Аида Ведищева - Надежда, Вера, Любовь (3:20)
14. Аида Ведищева - Король Воспоминаний (3:12)
15. Аида Ведищева - Отзовись (4:33)
16. Аида Ведищева - Загадай Желание (3:05)
17. Аида Ведищева - Любовь Не Вернуть (2:49)
18. Аида Ведищева - Военные Оркестры (2:49)
19. Аида Ведищева - Последние Дни Уходящего Лета (2:51)

Лог создания рипа

Exact Audio Copy V1.0 beta 1 from 15. November 2010
EAC extraction logfile from 9. December 2013, 18:04
Аида Ведищева / Лучшие Песни CD1
Used drive : ASUS DRW-24B3ST Adapter: 1 ID: 2
Read mode : Secure
Utilize accurate stream : Yes
Defeat audio cache : Yes
Make use of C2 pointers : No
Read offset correction : 6
Overread into Lead-In and Lead-Out : No
Fill up missing offset samples with silence : Yes
Delete leading and trailing silent blocks : No
Null samples used in CRC calculations : Yes
Used interface : Native Win32 interface for Win NT & 2000
Gap handling : Appended to previous track
Used output format : User Defined Encoder
Selected bitrate : 896 kBit/s
Quality : High
Add ID3 tag : No
Command line compressor : C:\Program Files (x86)\Exact Audio Copy\Flac\flac.exe
Additional command line options : -8 -V -T "ARTIST=%a" -T "TITLE=%t" -T "ALBUM=%g" -T "DATE=%y" -T "TRACKNUMBER=%n" -T "GENRE=%m" -T "COMMENT=ripped by Oleandris" %s
TOC of the extracted CD
Track | Start | Length | Start sector | End sector
---------------------------------------------------------
1 | 0:00.00 | 2:57.21 | 0 | 13295
2 | 2:57.21 | 4:39.19 | 13296 | 34239
3 | 7:36.40 | 2:34.60 | 34240 | 45849
4 | 10:11.25 | 2:49.00 | 45850 | 58524
5 | 13:00.25 | 3:28.50 | 58525 | 74174
6 | 16:29.00 | 2:29.36 | 74175 | 85385
7 | 18:58.36 | 3:13.33 | 85386 | 99893
8 | 22:11.69 | 3:36.16 | 99894 | 116109
9 | 25:48.10 | 2:24.27 | 116110 | 126936
10 | 28:12.37 | 2:38.37 | 126937 | 138823
11 | 30:50.74 | 2:19.15 | 138824 | 149263
12 | 33:10.14 | 3:03.65 | 149264 | 163053
13 | 36:14.04 | 3:19.68 | 163054 | 178046
14 | 39:33.72 | 3:12.17 | 178047 | 192463
15 | 42:46.14 | 4:32.64 | 192464 | 212927
16 | 47:19.03 | 3:05.02 | 212928 | 226804
17 | 50:24.05 | 2:49.36 | 226805 | 239515
18 | 53:13.41 | 2:49.03 | 239516 | 252193
19 | 56:02.44 | 2:51.35 | 252194 | 265053
Track 1
Filename F:\ЗАГРУЗКИ\ Аида Ведищева - Лучшие Песни 2CD (2013)\CD1\01. Лесной Олень.wav
Pre-gap length 0:00:02.00
Peak level 100.0 %
Extraction speed 3.6 X
Track quality 100.0 %
Test CRC 7BC5DC14
Copy CRC 7BC5DC14
Track not present in AccurateRip database
Copy OK
Track 2
Filename F:\ЗАГРУЗКИ\ Аида Ведищева - Лучшие Песни 2CD (2013)\CD1\02. Помоги Мне.wav
Peak level 100.0 %
Extraction speed 3.5 X
Track quality 99.9 %
Test CRC 45F6BF22
Copy CRC 45F6BF22
Track not present in AccurateRip database
Copy OK
Track 3
Filename F:\ЗАГРУЗКИ\ Аида Ведищева - Лучшие Песни 2CD (2013)\CD1\03. Дорожная.wav
Peak level 99.0 %
Extraction speed 4.1 X
Track quality 100.0 %
Test CRC 9A2730FA
Copy CRC 9A2730FA
Track not present in AccurateRip database
Copy OK
Track 4
Filename F:\ЗАГРУЗКИ\ Аида Ведищева - Лучшие Песни 2CD (2013)\CD1\04. Арифметика.wav
Peak level 89.8 %
Extraction speed 3.3 X
Track quality 99.9 %
Test CRC 1643B28F
Copy CRC 1643B28F
Track not present in AccurateRip database
Copy OK
Track 5
Filename F:\ЗАГРУЗКИ\ Аида Ведищева - Лучшие Песни 2CD (2013)\CD1\05. Гололёд.wav
Peak level 100.0 %
Extraction speed 4.8 X
Track quality 100.0 %
Test CRC ADC0CD83
Copy CRC ADC0CD83
Track not present in AccurateRip database
Copy OK
Track 6
Filename F:\ЗАГРУЗКИ\ Аида Ведищева - Лучшие Песни 2CD (2013)\CD1\06. Песня о Весне.wav
Peak level 100.0 %
Extraction speed 4.6 X
Track quality 100.0 %
Test CRC 8866D21A
Copy CRC 8866D21A
Track not present in AccurateRip database
Copy OK
Track 7
Filename F:\ЗАГРУЗКИ\ Аида Ведищева - Лучшие Песни 2CD (2013)\CD1\07. Товарищ.wav
Peak level 100.0 %
Extraction speed 5.1 X
Track quality 100.0 %
Test CRC 0FF78E16
Copy CRC 0FF78E16
Track not present in AccurateRip database
Copy OK
Track 8
Filename F:\ЗАГРУЗКИ\ Аида Ведищева - Лучшие Песни 2CD (2013)\CD1\08. Просто Возраст Мой Такой.wav
Peak level 100.0 %
Extraction speed 5.4 X
Track quality 100.0 %
Test CRC AB12C12F
Copy CRC AB12C12F
Track not present in AccurateRip database
Copy OK
Track 9
Filename F:\ЗАГРУЗКИ\ Аида Ведищева - Лучшие Песни 2CD (2013)\CD1\09. Найди Меня.wav
Peak level 100.0 %
Extraction speed 5.2 X
Track quality 100.0 %
Test CRC 7A4D51EB
Copy CRC 7A4D51EB
Track not present in AccurateRip database
Copy OK
Track 10
Filename F:\ЗАГРУЗКИ\ Аида Ведищева - Лучшие Песни 2CD (2013)\CD1\10. Чёт Или Нечет.wav
Peak level 100.0 %
Extraction speed 5.4 X
Track quality 100.0 %
Test CRC 6B7C3B0A
Copy CRC 6B7C3B0A
Track not present in AccurateRip database
Copy OK
Track 11
Filename F:\ЗАГРУЗКИ\ Аида Ведищева - Лучшие Песни 2CD (2013)\CD1\11. Чёрный Кофе.wav
Peak level 96.6 %
Extraction speed 5.4 X
Track quality 100.0 %
Test CRC 360B8D2D
Copy CRC 360B8D2D
Track not present in AccurateRip database
Copy OK
Track 12
Filename F:\ЗАГРУЗКИ\ Аида Ведищева - Лучшие Песни 2CD (2013)\CD1\12. Смешной Паренёк.wav
Peak level 100.0 %
Extraction speed 5.8 X
Track quality 100.0 %
Test CRC E9AAC1A6
Copy CRC E9AAC1A6
Track not present in AccurateRip database
Copy OK
Track 13
Filename F:\ЗАГРУЗКИ\ Аида Ведищева - Лучшие Песни 2CD (2013)\CD1\13. Надежда, Вера, Любовь.wav
Peak level 83.7 %
Extraction speed 4.7 X
Track quality 99.9 %
Test CRC CE2B4DAC
Copy CRC CE2B4DAC
Track not present in AccurateRip database
Copy OK
Track 14
Filename F:\ЗАГРУЗКИ\ Аида Ведищева - Лучшие Песни 2CD (2013)\CD1\14. Король Воспоминаний.wav
Peak level 100.0 %
Extraction speed 6.3 X
Track quality 100.0 %
Test CRC 6B0377A4
Copy CRC 6B0377A4
Track not present in AccurateRip database
Copy OK
Track 15
Filename F:\ЗАГРУЗКИ\ Аида Ведищева - Лучшие Песни 2CD (2013)\CD1\15. Отзовись.wav
Peak level 100.0 %
Extraction speed 6.7 X
Track quality 100.0 %
Test CRC 7A613311
Copy CRC 7A613311
Track not present in AccurateRip database
Copy OK
Track 16
Filename F:\ЗАГРУЗКИ\ Аида Ведищева - Лучшие Песни 2CD (2013)\CD1\16. Загадай Желание.wav
Peak level 100.0 %
Extraction speed 6.5 X
Track quality 100.0 %
Test CRC EB8D0FDF
Copy CRC EB8D0FDF
Track not present in AccurateRip database
Copy OK
Track 17
Filename F:\ЗАГРУЗКИ\ Аида Ведищева - Лучшие Песни 2CD (2013)\CD1\17. Любовь Не Вернуть.wav
Peak level 72.0 %
Extraction speed 6.4 X
Track quality 100.0 %
Test CRC EA9AE2E6
Copy CRC EA9AE2E6
Track not present in AccurateRip database
Copy OK
Track 18
Filename F:\ЗАГРУЗКИ\ Аида Ведищева - Лучшие Песни 2CD (2013)\CD1\18. Военные Оркестры.wav
Peak level 100.0 %
Extraction speed 5.5 X
Track quality 100.0 %
Test CRC 33C8D43E
Copy CRC 33C8D43E
Track not present in AccurateRip database
Copy OK
Track 19
Filename F:\ЗАГРУЗКИ\ Аида Ведищева - Лучшие Песни 2CD (2013)\CD1\19. Последние Дни Уходящего Лета.wav
Peak level 100.0 %
Extraction speed 4.8 X
Track quality 100.0 %
Test CRC F0244016
Copy CRC F0244016
Track not present in AccurateRip database
Copy OK
None of the tracks are present in the AccurateRip database
No errors occurred
End of status report
==== Log checksum 7899F5F67D831CE5A3D861EB06A9ED4D132770287FAAD8A30459DAF9CE0A2446 ====

Содержание индексной карты (.CUE)

REM GENRE Pop
REM DATE 2013
REM DISCID 190DCE13
REM COMMENT "ExactAudioCopy v1.0b1"
PERFORMER "Аида Ведищева"
TITLE "Лучшие Песни CD1"
FILE "01. Лесной Олень.wav" WAVE
TRACK 01 AUDIO
TITLE "Лесной Олень"
PERFORMER "Аида Ведищева"
FLAGS DCP
INDEX 01 00:00:00
FILE "02. Помоги Мне.wav" WAVE
TRACK 02 AUDIO
TITLE "Помоги Мне"
PERFORMER "Аида Ведищева"
FLAGS DCP
INDEX 01 00:00:00
FILE "03. Дорожная.wav" WAVE
TRACK 03 AUDIO
TITLE "Дорожная"
PERFORMER "Аида Ведищева"
FLAGS DCP
INDEX 01 00:00:00
FILE "04. Арифметика.wav" WAVE
TRACK 04 AUDIO
TITLE "Арифметика"
PERFORMER "Аида Ведищева"
FLAGS DCP
INDEX 01 00:00:00
FILE "05. Гололёд.wav" WAVE
TRACK 05 AUDIO
TITLE "Гололёд"
PERFORMER "Аида Ведищева"
FLAGS DCP
INDEX 01 00:00:00
FILE "06. Песня о Весне.wav" WAVE
TRACK 06 AUDIO
TITLE "Песня о Весне"
PERFORMER "Аида Ведищева"
FLAGS DCP
INDEX 01 00:00:00
FILE "07. Товарищ.wav" WAVE
TRACK 07 AUDIO
TITLE "Товарищ"
PERFORMER "Аида Ведищева"
FLAGS DCP
INDEX 01 00:00:00
FILE "08. Просто Возраст Мой Такой.wav" WAVE
TRACK 08 AUDIO
TITLE "Просто Возраст Мой Такой"
PERFORMER "Аида Ведищева"
FLAGS DCP
INDEX 01 00:00:00
FILE "09. Найди Меня.wav" WAVE
TRACK 09 AUDIO
TITLE "Найди Меня"
PERFORMER "Аида Ведищева"
FLAGS DCP
INDEX 01 00:00:00
FILE "10. Чёт Или Нечет.wav" WAVE
TRACK 10 AUDIO
TITLE "Чёт Или Нечет"
PERFORMER "Аида Ведищева"
FLAGS DCP
INDEX 01 00:00:00
FILE "11. Чёрный Кофе.wav" WAVE
TRACK 11 AUDIO
TITLE "Чёрный Кофе"
PERFORMER "Аида Ведищева"
FLAGS DCP
INDEX 01 00:00:00
FILE "12. Смешной Паренёк.wav" WAVE
TRACK 12 AUDIO
TITLE "Смешной Паренёк"
PERFORMER "Аида Ведищева"
FLAGS DCP
INDEX 01 00:00:00
FILE "13. Надежда, Вера, Любовь.wav" WAVE
TRACK 13 AUDIO
TITLE "Надежда, Вера, Любовь"
PERFORMER "Аида Ведищева"
FLAGS DCP
INDEX 01 00:00:00
FILE "14. Король Воспоминаний.wav" WAVE
TRACK 14 AUDIO
TITLE "Король Воспоминаний"
PERFORMER "Аида Ведищева"
FLAGS DCP
INDEX 01 00:00:00
FILE "15. Отзовись.wav" WAVE
TRACK 15 AUDIO
TITLE "Отзовись"
PERFORMER "Аида Ведищева"
FLAGS DCP
INDEX 01 00:00:00
FILE "16. Загадай Желание.wav" WAVE
TRACK 16 AUDIO
TITLE "Загадай Желание"
PERFORMER "Аида Ведищева"
FLAGS DCP
INDEX 01 00:00:00
FILE "17. Любовь Не Вернуть.wav" WAVE
TRACK 17 AUDIO
TITLE "Любовь Не Вернуть"
PERFORMER "Аида Ведищева"
FLAGS DCP
INDEX 01 00:00:00
FILE "18. Военные Оркестры.wav" WAVE
TRACK 18 AUDIO
TITLE "Военные Оркестры"
PERFORMER "Аида Ведищева"
FLAGS DCP
INDEX 01 00:00:00
FILE "19. Последние Дни Уходящего Лета.wav" WAVE
TRACK 19 AUDIO
TITLE "Последние Дни Уходящего Лета"
PERFORMER "Аида Ведищева"
FLAGS DCP
INDEX 01 00:00:00
Время звучания: 0:58:54

СD2Треклист

01. Аида Ведищева - Песенка о Медведях (2:59)
02. Аида Ведищева - Всё Равно Ты Будешь Мой (1:56)
03. Аида Ведищева - Колыбельная Медведицы (2:04)
04. Аида Ведищева - Я Буду Ждать Тебя (3:28)
05. Аида Ведищева - Человек Придумал Песню (2:50)
06. Аида Ведищева - Не Родись Красивой (3:27)
07. Аида Ведищева - Песенка Вполголоса (2:42)
08. Аида Ведищева - Куда Же Вы Спешите (2:18)
09. Аида Ведищева - Ах, Наташа (3:19)
10. Аида Ведищева - Старый Сад (2:44)
11. Аида Ведищева - Гуси, Гуси (2:21)
12. Аида Ведищева - Колдунья (2:21)
13. Аида Ведищева - Две Души (4:32)
14. Аида Ведищева - Моё Счастье Море Унесло (2:33)
15. Аида Ведищева - Будешь Ты (2:52)
16. Аида Ведищева - Разве Тот Мужчина (3:04)
17. Аида Ведищева - Твоя Вина (3:49)
18. Аида Ведищева - Рассвет (2:02)
19. Аида Ведищева - Откровенная Песня (2:57)

Лог создания рипа

Exact Audio Copy V1.0 beta 1 from 15. November 2010
EAC extraction logfile from 9. December 2013, 22:45
Аида Ведищева / Лучшие Песни CD2
Used drive : PLEXTOR DVDR PX-L890SA Adapter: 1 ID: 4
Read mode : Secure
Utilize accurate stream : Yes
Defeat audio cache : Yes
Make use of C2 pointers : No
Read offset correction : 6
Overread into Lead-In and Lead-Out : No
Fill up missing offset samples with silence : Yes
Delete leading and trailing silent blocks : No
Null samples used in CRC calculations : Yes
Used interface : Native Win32 interface for Win NT & 2000
Gap handling : Appended to previous track
Used output format : User Defined Encoder
Selected bitrate : 896 kBit/s
Quality : High
Add ID3 tag : No
Command line compressor : C:\Program Files (x86)\Exact Audio Copy\Flac\flac.exe
Additional command line options : -8 -V -T "ARTIST=%a" -T "TITLE=%t" -T "ALBUM=%g" -T "DATE=%y" -T "TRACKNUMBER=%n" -T "GENRE=%m" -T "COMMENT=ripped by Oleandris" %s
TOC of the extracted CD
Track | Start | Length | Start sector | End sector
---------------------------------------------------------
1 | 0:00.00 | 2:58.49 | 0 | 13398
2 | 2:58.49 | 1:55.40 | 13399 | 22063
3 | 4:54.14 | 2:04.37 | 22064 | 31400
4 | 6:58.51 | 3:28.32 | 31401 | 47032
5 | 10:27.08 | 2:50.14 | 47033 | 59796
6 | 13:17.22 | 3:26.71 | 59797 | 75317
7 | 16:44.18 | 2:42.03 | 75318 | 87470
8 | 19:26.21 | 2:18.09 | 87471 | 97829
9 | 21:44.30 | 3:19.29 | 97830 | 112783
10 | 25:03.59 | 2:44.00 | 112784 | 125083
11 | 27:47.59 | 2:20.72 | 125084 | 135655
12 | 30:08.56 | 2:20.65 | 135656 | 146220
13 | 32:29.46 | 4:31.55 | 146221 | 166600
14 | 37:01.26 | 2:33.24 | 166601 | 178099
15 | 39:34.50 | 2:52.02 | 178100 | 191001
16 | 42:26.52 | 3:03.41 | 191002 | 204767
17 | 45:30.18 | 3:49.14 | 204768 | 221956
18 | 49:19.32 | 2:02.33 | 221957 | 231139
19 | 51:21.65 | 2:57.24 | 231140 | 244438
Track 1
Filename F:\ЗАГРУЗКИ\ Аида Ведищева - Лучшие Песни 2CD (2013)\CD2\01. Песенка о Медведях.wav
Pre-gap length 0:00:02.00
Peak level 100.0 %
Extraction speed 2.8 X
Track quality 99.9 %
Test CRC 22BD5850
Copy CRC 22BD5850
Track not present in AccurateRip database
Copy OK
Track 2
Filename F:\ЗАГРУЗКИ\ Аида Ведищева - Лучшие Песни 2CD (2013)\CD2\02. Всё Равно Ты Будешь Мой.wav
Peak level 98.3 %
Extraction speed 2.4 X
Track quality 99.9 %
Test CRC 3CE464AB
Copy CRC 3CE464AB
Track not present in AccurateRip database
Copy OK
Track 3
Filename F:\ЗАГРУЗКИ\ Аида Ведищева - Лучшие Песни 2CD (2013)\CD2\03. Колыбельная Медведицы.wav
Peak level 100.0 %
Extraction speed 3.7 X
Track quality 100.0 %
Test CRC 4CFC4B3B
Copy CRC 4CFC4B3B
Track not present in AccurateRip database
Copy OK
Track 4
Filename F:\ЗАГРУЗКИ\ Аида Ведищева - Лучшие Песни 2CD (2013)\CD2\04. Я Буду Ждать Тебя.wav
Peak level 100.0 %
Extraction speed 4.4 X
Track quality 100.0 %
Test CRC 46F6BBC3
Copy CRC 46F6BBC3
Track not present in AccurateRip database
Copy OK
Track 5
Filename F:\ЗАГРУЗКИ\ Аида Ведищева - Лучшие Песни 2CD (2013)\CD2\05. Человек Придумал Песню.wav
Peak level 100.0 %
Extraction speed 4.4 X
Track quality 100.0 %
Test CRC 711E9A11
Copy CRC 711E9A11
Track not present in AccurateRip database
Copy OK
Track 6
Filename F:\ЗАГРУЗКИ\ Аида Ведищева - Лучшие Песни 2CD (2013)\CD2\06. Не Родись Красивой.wav
Peak level 100.0 %
Extraction speed 4.8 X
Track quality 100.0 %
Test CRC 8557F63E
Copy CRC 8557F63E
Track not present in AccurateRip database
Copy OK
Track 7
Filename F:\ЗАГРУЗКИ\ Аида Ведищева - Лучшие Песни 2CD (2013)\CD2\07. Песенка Вполголоса.wav
Peak level 100.0 %
Extraction speed 3.5 X
Track quality 99.9 %
Test CRC EC2A209A
Copy CRC EC2A209A
Track not present in AccurateRip database
Copy OK
Track 8
Filename F:\ЗАГРУЗКИ\ Аида Ведищева - Лучшие Песни 2CD (2013)\CD2\08. Куда Же Вы Спешите.wav
Peak level 100.0 %
Extraction speed 3.4 X
Track quality 99.9 %
Test CRC 4AECDD05
Copy CRC 4AECDD05
Track not present in AccurateRip database
Copy OK
Track 9
Filename F:\ЗАГРУЗКИ\ Аида Ведищева - Лучшие Песни 2CD (2013)\CD2\09. Ах, Наташа.wav
Peak level 100.0 %
Extraction speed 5.3 X
Track quality 100.0 %
Test CRC A4360582
Copy CRC A4360582
Track not present in AccurateRip database
Copy OK
Track 10
Filename F:\ЗАГРУЗКИ\ Аида Ведищева - Лучшие Песни 2CD (2013)\CD2\10. Старый Сад.wav
Peak level 100.0 %
Extraction speed 5.3 X
Track quality 100.0 %
Test CRC A3259BE0
Copy CRC A3259BE0
Track not present in AccurateRip database
Copy OK
Track 11
Filename F:\ЗАГРУЗКИ\ Аида Ведищева - Лучшие Песни 2CD (2013)\CD2\11. Гуси, Гуси.wav
Peak level 100.0 %
Extraction speed 5.2 X
Track quality 100.0 %
Test CRC 3A278E03
Copy CRC 3A278E03
Track not present in AccurateRip database
Copy OK
Track 12
Filename F:\ЗАГРУЗКИ\ Аида Ведищева - Лучшие Песни 2CD (2013)\CD2\12. Колдунья.wav
Peak level 94.2 %
Extraction speed 5.4 X
Track quality 100.0 %
Test CRC 51E607F3
Copy CRC 51E607F3
Track not present in AccurateRip database
Copy OK
Track 13
Filename F:\ЗАГРУЗКИ\ Аида Ведищева - Лучшие Песни 2CD (2013)\CD2\13. Две Души.wav
Peak level 100.0 %
Extraction speed 6.2 X
Track quality 100.0 %
Test CRC 23219038
Copy CRC 23219038
Track not present in AccurateRip database
Copy OK
Track 14
Filename F:\ЗАГРУЗКИ\ Аида Ведищева - Лучшие Песни 2CD (2013)\CD2\14. Моё Счастье Море Унесло.wav
Peak level 100.0 %
Extraction speed 5.9 X
Track quality 100.0 %
Test CRC 44EBA1BE
Copy CRC 44EBA1BE
Track not present in AccurateRip database
Copy OK
Track 15
Filename F:\ЗАГРУЗКИ\ Аида Ведищева - Лучшие Песни 2CD (2013)\CD2\15. Будешь Ты.wav
Peak level 100.0 %
Extraction speed 4.6 X
Track quality 99.9 %
Test CRC 567BDE36
Copy CRC 567BDE36
Track not present in AccurateRip database
Copy OK
Track 16
Filename F:\ЗАГРУЗКИ\ Аида Ведищева - Лучшие Песни 2CD (2013)\CD2\16. Разве Тот Мужчина.wav
Peak level 100.0 %
Extraction speed 6.3 X
Track quality 100.0 %
Test CRC 8A391EA8
Copy CRC 8A391EA8
Track not present in AccurateRip database
Copy OK
Track 17
Filename F:\ЗАГРУЗКИ\ Аида Ведищева - Лучшие Песни 2CD (2013)\CD2\17. Твоя Вина.wav
Peak level 100.0 %
Extraction speed 6.8 X
Track quality 100.0 %
Test CRC 26EAD97D
Copy CRC 26EAD97D
Track not present in AccurateRip database
Copy OK
Track 18
Filename F:\ЗАГРУЗКИ\ Аида Ведищева - Лучшие Песни 2CD (2013)\CD2\18. Рассвет.wav
Peak level 100.0 %
Extraction speed 6.1 X
Track quality 100.0 %
Test CRC 720E906F
Copy CRC 720E906F
Track not present in AccurateRip database
Copy OK
Track 19
Filename F:\ЗАГРУЗКИ\ Аида Ведищева - Лучшие Песни 2CD (2013)\CD2\19. Откровенная Песня.wav
Peak level 79.9 %
Extraction speed 4.9 X
Track quality 99.9 %
Test CRC EB501A1B
Copy CRC EB501A1B
Track not present in AccurateRip database
Copy OK
None of the tracks are present in the AccurateRip database
No errors occurred
End of status report
==== Log checksum B1ABC4E74B81E3BDD1365E181B5838B8AF01F62D3A7B33924845212ADDA375DB ====

Содержание индексной карты (.CUE)

REM GENRE Pop
REM DATE 2013
REM DISCID 050CBB13
REM COMMENT "ExactAudioCopy v1.0b1"
PERFORMER "Аида Ведищева"
TITLE "Лучшие Песни CD2"
FILE "01. Песенка о Медведях.wav" WAVE
TRACK 01 AUDIO
TITLE "Песенка о Медведях"
PERFORMER "Аида Ведищева"
FLAGS DCP
INDEX 01 00:00:00
FILE "02. Всё Равно Ты Будешь Мой.wav" WAVE
TRACK 02 AUDIO
TITLE "Всё Равно Ты Будешь Мой"
PERFORMER "Аида Ведищева"
FLAGS DCP
INDEX 01 00:00:00
FILE "03. Колыбельная Медведицы.wav" WAVE
TRACK 03 AUDIO
TITLE "Колыбельная Медведицы"
PERFORMER "Аида Ведищева"
FLAGS DCP
INDEX 01 00:00:00
FILE "04. Я Буду Ждать Тебя.wav" WAVE
TRACK 04 AUDIO
TITLE "Я Буду Ждать Тебя"
PERFORMER "Аида Ведищева"
FLAGS DCP
INDEX 01 00:00:00
FILE "05. Человек Придумал Песню.wav" WAVE
TRACK 05 AUDIO
TITLE "Человек Придумал Песню"
PERFORMER "Аида Ведищева"
FLAGS DCP
INDEX 01 00:00:00
FILE "06. Не Родись Красивой.wav" WAVE
TRACK 06 AUDIO
TITLE "Не Родись Красивой"
PERFORMER "Аида Ведищева"
FLAGS DCP
INDEX 01 00:00:00
FILE "07. Песенка Вполголоса.wav" WAVE
TRACK 07 AUDIO
TITLE "Песенка Вполголоса"
PERFORMER "Аида Ведищева"
FLAGS DCP
INDEX 01 00:00:00
FILE "08. Куда Же Вы Спешите.wav" WAVE
TRACK 08 AUDIO
TITLE "Куда Же Вы Спешите"
PERFORMER "Аида Ведищева"
FLAGS DCP
INDEX 01 00:00:00
FILE "09. Ах, Наташа.wav" WAVE
TRACK 09 AUDIO
TITLE "Ах, Наташа"
PERFORMER "Аида Ведищева"
FLAGS DCP
INDEX 01 00:00:00
FILE "10. Старый Сад.wav" WAVE
TRACK 10 AUDIO
TITLE "Старый Сад"
PERFORMER "Аида Ведищева"
FLAGS DCP
INDEX 01 00:00:00
FILE "11. Гуси, Гуси.wav" WAVE
TRACK 11 AUDIO
TITLE "Гуси, Гуси"
PERFORMER "Аида Ведищева"
FLAGS DCP
INDEX 01 00:00:00
FILE "12. Колдунья.wav" WAVE
TRACK 12 AUDIO
TITLE "Колдунья"
PERFORMER "Аида Ведищева"
FLAGS DCP
INDEX 01 00:00:00
FILE "13. Две Души.wav" WAVE
TRACK 13 AUDIO
TITLE "Две Души"
PERFORMER "Аида Ведищева"
FLAGS DCP
INDEX 01 00:00:00
FILE "14. Моё Счастье Море Унесло.wav" WAVE
TRACK 14 AUDIO
TITLE "Моё Счастье Море Унесло"
PERFORMER "Аида Ведищева"
FLAGS DCP
INDEX 01 00:00:00
FILE "15. Будешь Ты.wav" WAVE
TRACK 15 AUDIO
TITLE "Будешь Ты"
PERFORMER "Аида Ведищева"
FLAGS DCP
INDEX 01 00:00:00
FILE "16. Разве Тот Мужчина.wav" WAVE
TRACK 16 AUDIO
TITLE "Разве Тот Мужчина"
PERFORMER "Аида Ведищева"
FLAGS DCP
INDEX 01 00:00:00
FILE "17. Твоя Вина.wav" WAVE
TRACK 17 AUDIO
TITLE "Твоя Вина"
PERFORMER "Аида Ведищева"
FLAGS DCP
INDEX 01 00:00:00
FILE "18. Рассвет.wav" WAVE
TRACK 18 AUDIO
TITLE "Рассвет"
PERFORMER "Аида Ведищева"
FLAGS DCP
INDEX 01 00:00:00
FILE "19. Откровенная Песня.wav" WAVE
TRACK 19 AUDIO
TITLE "Откровенная Песня"
PERFORMER "Аида Ведищева"
FLAGS DCP
INDEX 01 00:00:00
Время звучания: 0:54:19:
[Профиль] [ЛС]
Показать сообщения:    
Ответить на тему

Текущее время: Сегодня 01:22

Часовой пояс: GMT + 4



Вы не можете начинать темы
Вы не можете отвечать на сообщения
Вы не можете редактировать свои сообщения
Вы не можете удалять свои сообщения
Вы не можете голосовать в опросах
Вы не можете прикреплять файлы к сообщениям
Вы не можете скачивать файлы